The Secret Life of Pets 2016 CAM XviD-VAiN

seeders: 1233
leechers: 1528
updated:
Added by Silmarillion806.32K in Movies > Animation
Torrent verified. Downloaded 1,525 times.

Summary:

Taking place in a Manhattan apartment building, Max's life as a favorite pet is turned upside down, when his owner brings home a sloppy mongrel named Duke. They have to put their quarrels behind, when they find out that an adorable white bunny named Snowball is building an army of abandoned pets determined to take revenge on all happy-owned pets and their owners.

Written by VincibleIgndr12.02K
Available in versions: Cam
The Secret Life of Pets 2016 CAM XviD-VAiN (Size: 711.08 MB)
  The.Secret.Life.of.Pets.2016.CAN.XviD-VAiN.avi 704.4 MB
  Torrent Downloaded From ExtraTorrent.cc.txt 338 bytes
  VAIN.nfo 2.99 KB
  sample.avi 6.68 MB

Description

image


http://www.imdb.com/title/tt2709768/


A terrier named Max's quiet life is upended when his owner takes in Duke, a stray, who Max instantly dislikes.

Directors: Yarrow Cheney, Chris Renaud
Writers: Cinco Paul, Ken Daurio
Stars: Louis C.K., Eric Stonestreet, Kevin Hart
Genres: Animation | Comedy | Family
Country: Japan | USA
Language: English


Basic Information
Format : AVI
Format/Info : Audio Video Interleave
File size : 704 MiB
Duration : 1h 23mn
Overall bit rate : 1 183 Kbps
Writing application : VirtualDubMod 1.5.10.2 (build 2540/release)
Writing library : VirtualDubMod build 2540/release

Video
ID : 0
Format : MPEG-4 Visual
Format profile : Advanced [email protected]
Format settings, BVOP : 2
Format settings, QPel : No
Format settings, GMC : No warppoints
Format settings, Matrix : Default (H.263)
Muxing mode : Packed bitstream
Codec ID : XVID
Codec ID/Hint : XviD
Duration : 1h 23mn
Bit rate : 979 Kbps
Width : 720 pixels
Height : 356 pixels
Display aspect ratio : 2.022
Frame rate : 29.970 (30000/1001) fps
Color space : YUV
Chroma subsampling : 4:2:0
Bit depth : 8 bits
Scan type : Progressive
Compression mode : Lossy
Bits/(Pixel*Frame) : 0.127
Stream size : 583 MiB (83%)
Writing library : XviD 64

Audio
ID : 1
Format : MPEG Audio
Format version : Version 1
Format profile : Layer 3
Codec ID : 55
Codec ID/Hint : MP3
Duration : 1h 23mn
Bit rate mode : Constant
Bit rate : 192 Kbps
Channel(s) : 2 channels
Sampling rate : 48.0 KHz
Compression mode : Lossy
Stream size : 114 MiB (16%)
Alignment : Aligned on interleaves
Interleave, duration : 33 ms (1.00 video frame)
Interleave, preload duratio : 504 ms

E N C O D E R S . N O T E S . . .

SOURCE......: ViDEO...BusyBoyz [cheers and many thanks for letting me borrow]
............: AUDiO...BusyBoyz
SAMPLE......: Yippers
ADDED NOTE..: rotated, chopped, cropped and re=sized... then added the ol poo-shine and here we are :) took audio, ran a few filters brought nice lvls and warm tones...
enjoy or pass...


image image image image image image

Related Torrents

torrent name size files age seed leech

Sharing Widget


Download torrent
711.08 MB
seeders:833
leechers:1070
The Secret Life of Pets 2016 CAM XviD-VAiN



To share this torrent use the code below and insert it into comments, status messages, forum posts or your signature.

Torrent: The Secret Life of Pets 2016 CAM XviD-VAiN

Trackers

tracker name
udp://tracker.openbittorrent.com:80/announce
udp://tracker.coppersurfer.tk:6969/announce
udp://p4p.arenabg.ch:1337/announce
udp://p4p.arenabg.com:1337/announce
udp://explodie.org:6969/announce
udp://tracker.aletorrenty.pl:2710/announce
udp://9.rarbg.to:2710/announce
udp://torrent.gresille.org:80/announce
udp://tracker.piratepublic.com:1337/announce
udp://tracker.opentrackr.org:1337/announce
µTorrent compatible trackers list

Locations

name
KickassTorrents
ExtraTorrent
Torrent hash: 759AE4296FE23E2AFD530D5ED42E822CE58DC435

All Comments

audio
7/10
video
7/10
please, leave only comments related to that torrent
Sign In

audio: 7video: 7
Thanks to the uploader, bit fuzzy but watchable, still a good upload
audio: 9video: 9
Awesome release. Thanks a lot M8.
audio: 6video: 7
Audio is a little canned sounding but nothing overly bothersome, picture is very watchable being as it is a cam - TYVVVM for the share!

User Opinions

Report a bug Open chat